重庆幸运农场官方开奖结果|重庆幸运农场每天几点
當前位置:家家網 > 體育 > 正文 >

17:44 群星 / 2012 香港高級視聽展 使用驅動器 :MATSHITADVD-RAM UJ8E0 Adapte

www.m1bq.com 發布時間:2019年03月30日 13:31 來源:www.m1bq.com 手機版

請各管管或版版直接刪除本帖,感謝,新疆時時彩開獎結果,加入北京賽車計劃群, 17:44 群星 / 2012 噴鼻港高檔視聽展 應用驅動器 :MATSHITADVD-RAM UJ8E0 Adapter: 0 ID: 0 讀取模式: 卵翼 應用精確流 : 是 拔除音頻緩沖 : 否 應用 C2 指針 : 否 組合讀/寫偏移校正: 0 讀取 Lead-In 和 Lead-Out: 否 用靜音添補抓取中喪掉偏移的采樣 : 是 去除首尾靜音塊: 否 在 CRC 計算中應用了空樣本: 否 已用接口: Win NT 及 2000 本地 Win32 接口 所用輸出款式 : 內部 WAV 函數 樣本款式: 44.100 Hz;16 Bit;立體聲 被抓軌 CD 的 TOC 音軌 | 開始 | 長度 | 肇端扇區 | 結尾扇區 -------------------------------------------------- 1 | 0:00.00 | 3:36.02 |0 | 16201 2 | 3:36.02 | 3:40.60 | 16202 | 32761 3 | 7:16.62 | 4:19.29 | 32762 | 52215 4 | 11:36.16 | 5:00.09 | 52216 | 74724 5 | 16:36.25 | 4:44.55 | 74725 | 96079 6 | 21:21.05 | 3:23.28 | 96080 | 111332 7 | 24:44.33 | 4:37.16 | 111333 | 132123 8 | 29:21.49 | 4:08.33 | 132124 | 150756 9 | 33:30.07 | 8:50.73 | 150757 | 190579 10 | 42:21.05 | 1:54.22 | 190580 | 199151 11 | 44:15.27 | 6:57.43 | 199152 | 230469 12 | 51:12.70 | 4:45.50 | 230470 | 251894 13 | 55:58.45 | 4:56.14 | 251895 | 274108 14 | 60:54.59 | 7:11.45 | 274109 | 306478 15 | 68:06.29 | 4:39.26 | 306479 | 327429 16 | 72:45.55 | 2:07.31 | 327430 | 336985 范圍狀態及差錯 已選擇范圍 文件名 F:\音頻抓軌\群星 - 2012 噴鼻港高檔視聽展.wav 峰值電平 95.9 % 范圍質量 99.9 % 復制 CRC 8BDA61B1 復制成功 沒有差錯發生 狀態申報結尾 ---------------------------------------------- 友情提醒:下載測試資本寄放于免費網盤,不用任何形式的看護我本人,500萬彩票網11選5, 華聲論壇 影音帝國 官方QQ群 影視時空|音樂地帶 QQ群:140288348 128111319 42933722 音樂快遞QQ群:338549863 原聲地帶QQ群:344590352 高品德單曲QQ群:116060792 表情音樂QQ群:154659931 表情吟誦QQ群:190584521 音樂播放器QQ群:206520165 。

EAC 抓取日志文件: Exact Audio Copy V0.99 prebeta 4 from 23. January 2008 EAC 抓取日志文件從26. 玄月 2018,不保證資本的經久有效;若有任何一方主張版權。

Copyright © 2018 家家網 版權所有 Power by www.m1bq.com 本站文章轉載于網絡,如有侵權內容請發郵件至:3112281617#qq.com(請將#換成@發郵件) 處理。

重庆幸运农场官方开奖结果 e球彩 江西快3 四川快乐12 qq分分彩 甘肃快三 usb等离子体球 世界杯即时赔率大小球 辛运28 nba比分188 脱兔电竞比分网 天津快乐10分 浙江快乐彩 快速时时彩 淘宝快3 湖北快3 秒速飞艇